Загружается…
Ошибка

Поединок. Александр Проханов против Дмитрия Энтео [10.09.2015, Тв-шоу, HDTV 1080i]

Страницы:  1

Ответить на тему
Автор Сообщение

Разум

Поединок. Александр Проханов против Дмитрия Энтео
Дата/Год выпуска: 10.09.2015
Страна: Россия
Жанр: Тв-шоу
Продолжительность: 01:38:51
Перевод: Не требуется
Русские субтитры: нет
Телеканал: Россия HD
Описание: Общественно-политическое ток-шоу телеканала «Россия-1», авторская программа Владимира Соловьева. В центре внимания каждого выпуска ток-шоу «Поединок» находится актуальная на текущий момент проблема – борьба с терроризмом, коррупция, межнациональные отношения, ювенальная юстиция, выборы в Государственную Думу и президентские выборы. Также в поле зрения создателей программы попадают такие интересные вопросы, как распад СССР, ЕГЭ, результаты переписи населения, русский мат и многое другое. В качестве дуэлянтов в студию, представляющую собой символическую арену, окруженную зрительными рядами, приглашаются две известные персоны, придерживающиеся полярных точек зрения на предмет обсуждения. Гостями «Поединка» становятся политики, общественные деятели, представители публичных профессий – актеры, режиссеры, писатели, журналисты. В программе принимали участие Алексей Венедиктов, Михаил Веллер, Владимир Жириновский, Анатолий Кучерена, Аркадий Мамонтов, Никита Михалков, Марат Гельман, Юлий Гусман, Михаил Леонтьев, Николай Сванидзе, Дмитрий Рогозин, Дмитрий Быков, Николай Бурляев, Михаил Барщевский, Виктор Ерофеев и другие.
В этом выпуске: Александр Проханов против Дмитрия Энтео
Внимание! Запись с московского эфира!
Источник: собственный рип
Доп. информация: Релиз -

Рип чистый. Без посторонних надписей. Выкладывается как есть.
Качество: HDTV 1080i
Контейнер: TS
Видео кодек: AVC
Аудио кодек: MP2
Видео: 1920x1080 (16:9) 25.000 fps ~ 10.5 Mbps, 0.200 bit/pixel
Аудио: MPEG Audio 48000Hz stereo 192 Кбит/сек 2 channels

Скриншоты

MI

GeneralID : 1 (0x1)Complete name : E:\ВЫКЛАДКА\Поединок. Выпуск от 10.09.2015 (2015, Тв-шоу, HDTV 1080i) (MYDIMKA).tsFormat : MPEG-TSFile size : 7.88 GiBDuration : 1h 38mnOverall bit rate mode : VariableOverall bit rate : 11.4 Mbps
VideoID : 306 (0x132)Menu ID : 20106 (0x4E8A)Format : AVCFormat/Info : Advanced Video CodecFormat profile : Main@L4Format settings, CABAC : YesFormat settings, ReFrames : 4 framesCodec ID : 27Duration : 1h 38mnBit rate : 10.7 MbpsWidth : 1 920 pixelsHeight : 1 080 pixelsDisplay aspect ratio : 16:9Frame rate : 25.000 fpsStandard : ComponentColor space : YUVChroma subsampling : 4:2:0Bit depth : 8 bitsScan type : InterlacedScan order : Top Field FirstBits/(Pixel*Frame) : 0.206Stream size : 7.35 GiB (93%)Color range : LimitedColor primaries : BT.709Transfer characteristics : BT.709Matrix coefficients : BT.709
AudioID : 406 (0x196)Menu ID : 20106 (0x4E8A)Format : MPEG AudioFormat version : Version 1Format profile : Layer 2Codec ID : 3Duration : 1h 38mnBit rate mode : ConstantBit rate : 192 KbpsChannel(s) : 2 channelsSampling rate : 48.0 KHzCompression mode : LossyDelay relative to video : -40msStream size : 136 MiB (2%)Language : English