Загружается…
Ошибка

Танковый Биатлон / Сезон: 3 / Серии: 1-5 (из 5) [2015, Военно-Спортивное Шоу, HDTV 720p]

Страницы:  1

Ответить на тему
Автор Сообщение

Разум

Танковый Биатлон / Сезон: 3 / Серии: 1-5 (из 5)- - Год выпуска: 2015
Страна: Россия
Студия: Россия HD | ООО "Телеиндустрия"
Жанр: Военно-Спортивное Шоу
Общая продолжительность: 3:56:51
Ведущий: Дмитрий Губерниев-Описание: Это шоу можно назвать чемпионатом мира по танковому биатлону. Беспрецедентные учения-соревнования, идея организации которых принадлежит министру обороны России Сергею Шойгу, привлекли внимание всего мира. Третий сезон будет еще более представительным. Свое участие в "Танковом биатлоне-2015" подтвердили 13 стран: Россия, Ангола, Армения, Венесуэла, Индия, Казахстан, Киргизия, Китай, Кувейт, Монголия, Никарагуа, Сербия, Таджикистан.-Автор рипа: lrn
Автор записи: GeneralFilm
Сэмпл: sendfile-Тип релиза: HDTV 720p
Контейнер: MKV
Видео: 1280x720 (16:9), 25,000 fps, H264, ~4000 kbps avg, ~0.174 bit/pixel
Аудио: 48 kHz, AC3 Dolby Digital, 2/0 (L,R) ch, ~192.00 kbps avg-

Продолжительность

1. Серия #3.1 (0:52:05)2. Серия #3.2 (0:52:01)3. Серия #3.3 (0:44:10)4. Серия #3.4 (0:44:30)5. Серия #3.5 (0:44:03)

MediaInfoTankoviy.Biatlon.(s03e01).2015.HDTV.720p.x264-lrn.mkv

GeneralUnique ID : 209227191167919461634237035417169620805 (0x9D67B0F6BEC50AC697CFED2F425CEF45)Complete name : E:\uTorrent.Temp\Temp\Tankoviy.Biatlon.(s03).2015.HDTV.720p.x264-lrn\Tankoviy.Biatlon.(s03e01).2015.HDTV.720p.x264-lrn.mkvFormat : MatroskaFormat version : Version 4 / Version 2File size : 1.53 GiBDuration : 52mn 5sOverall bit rate : 4 193 KbpsMovie name : Tankoviy.Biatlon.(s03).2015.HDTV.720p.x264-lrnEncoded date : UTC 2010-02-22 21:41:31Writing application : mkvmerge v5.9.0 ('On The Loose') built on Dec 9 2012 15:37:01Writing library : libebml v1.3.0 + libmatroska v1.4.0
VideoID : 1Format : AVCFormat/Info : Advanced Video CodecFormat profile : High@L4.1Format settings, CABAC : YesFormat settings, ReFrames : 8 framesCodec ID : V_MPEG4/ISO/AVCDuration : 52mn 5sBit rate : 4 000 KbpsWidth : 1 280 pixelsHeight : 720 pixelsDisplay aspect ratio : 16:9Frame rate mode : ConstantFrame rate : 25.000 fpsColor space : YUVChroma subsampling : 4:2:0Bit depth : 8 bitsScan type : ProgressiveBits/(Pixel*Frame) : 0.174Stream size : 1.43 GiB (93%)Writing library : x264 core 142 r2479 dd79a61Encoding settings : cabac=1 / ref=8 / deblock=1:-3:-3 / analyse=0x3:0x133 / me=umh / subme=9 / psy=1 / psy_rd=1.00:0.00 / mixed_ref=1 / me_range=32 / chroma_me=1 / trellis=2 / 8x8dct=1 / cqm=0 / deadzone=21,11 / fast_pskip=1 / chroma_qp_offset=-2 / threads=12 / lookahead_threads=2 / sliced_threads=0 / nr=0 / decimate=1 / interlaced=0 / bluray_compat=0 / constrained_intra=0 / bframes=8 / b_pyramid=2 / b_adapt=2 / b_bias=0 / direct=3 / weightb=1 / open_gop=0 / weightp=2 / keyint=250 / keyint_min=25 / scenecut=40 / intra_refresh=0 / rc_lookahead=50 / rc=2pass / mbtree=1 / bitrate=4000 / ratetol=1.0 / qcomp=0.60 / qpmin=0 / qpmax=69 / qpstep=4 / cplxblur=20.0 / qblur=0.5 / vbv_maxrate=62500 / vbv_bufsize=78125 / nal_hrd=none / filler=0 / ip_ratio=1.40 / aq=1:1.00Default : YesForced : NoColor range : LimitedColor primaries : BT.709Transfer characteristics : BT.709Matrix coefficients : BT.709
AudioID : 2Format : AC-3Format/Info : Audio Coding 3Mode extension : CM (complete main)Format settings, Endianness : BigCodec ID : A_AC3Duration : 52mn 5sBit rate mode : ConstantBit rate : 192 KbpsChannel(s) : 2 channelsChannel positions : Front: L RSampling rate : 48.0 KHzCompression mode : LossyDelay relative to video : -80msStream size : 71.5 MiB (5%)Language : RussianDefault : YesForced : No

Tankoviy.Biatlon.(s03e02).2015.HDTV.720p.x264-lrn.mkv

GeneralUnique ID : 214754257863273756821623949162367926628 (0xA1902A642121A5798F689AAB620BC164)Complete name : E:\uTorrent.Temp\Temp\Tankoviy.Biatlon.(s03).2015.HDTV.720p.x264-lrn\Tankoviy.Biatlon.(s03e02).2015.HDTV.720p.x264-lrn.mkvFormat : MatroskaFormat version : Version 4 / Version 2File size : 1.52 GiBDuration : 52mn 1sOverall bit rate : 4 193 KbpsMovie name : Tankoviy.Biatlon.(s03).2015.HDTV.720p.x264-lrnEncoded date : UTC 2010-02-22 21:41:31Writing application : mkvmerge v5.9.0 ('On The Loose') built on Dec 9 2012 15:37:01Writing library : libebml v1.3.0 + libmatroska v1.4.0
VideoID : 1Format : AVCFormat/Info : Advanced Video CodecFormat profile : High@L4.1Format settings, CABAC : YesFormat settings, ReFrames : 8 framesCodec ID : V_MPEG4/ISO/AVCDuration : 52mn 1sBit rate : 4 000 KbpsWidth : 1 280 pixelsHeight : 720 pixelsDisplay aspect ratio : 16:9Frame rate mode : ConstantFrame rate : 25.000 fpsColor space : YUVChroma subsampling : 4:2:0Bit depth : 8 bitsScan type : ProgressiveBits/(Pixel*Frame) : 0.174Stream size : 1.42 GiB (93%)Writing library : x264 core 142 r2479 dd79a61Encoding settings : cabac=1 / ref=8 / deblock=1:-3:-3 / analyse=0x3:0x133 / me=umh / subme=9 / psy=1 / psy_rd=1.00:0.00 / mixed_ref=1 / me_range=32 / chroma_me=1 / trellis=2 / 8x8dct=1 / cqm=0 / deadzone=21,11 / fast_pskip=1 / chroma_qp_offset=-2 / threads=12 / lookahead_threads=2 / sliced_threads=0 / nr=0 / decimate=1 / interlaced=0 / bluray_compat=0 / constrained_intra=0 / bframes=8 / b_pyramid=2 / b_adapt=2 / b_bias=0 / direct=3 / weightb=1 / open_gop=0 / weightp=2 / keyint=250 / keyint_min=25 / scenecut=40 / intra_refresh=0 / rc_lookahead=50 / rc=2pass / mbtree=1 / bitrate=4000 / ratetol=1.0 / qcomp=0.60 / qpmin=0 / qpmax=69 / qpstep=4 / cplxblur=20.0 / qblur=0.5 / vbv_maxrate=62500 / vbv_bufsize=78125 / nal_hrd=none / filler=0 / ip_ratio=1.40 / aq=1:1.00Default : YesForced : NoColor range : LimitedColor primaries : BT.709Transfer characteristics : BT.709Matrix coefficients : BT.709
AudioID : 2Format : AC-3Format/Info : Audio Coding 3Mode extension : CM (complete main)Format settings, Endianness : BigCodec ID : A_AC3Duration : 52mn 1sBit rate mode : ConstantBit rate : 192 KbpsChannel(s) : 2 channelsChannel positions : Front: L RSampling rate : 48.0 KHzCompression mode : LossyDelay relative to video : -80msStream size : 71.4 MiB (5%)Language : RussianDefault : YesForced : No

Tankoviy.Biatlon.(s03e03).2015.HDTV.720p.x264-lrn.mkv

GeneralUnique ID : 222893275252142605619461628749852641909 (0xA7AFAEEE2119ECB195FF761441FF0A75)Complete name : E:\uTorrent.Temp\Done\Tankoviy.Biatlon.(s03).2015.HDTV.720p.x264-lrn\Tankoviy.Biatlon.(s03e03).2015.HDTV.720p.x264-lrn.mkvFormat : MatroskaFormat version : Version 4 / Version 2File size : 1.29 GiBDuration : 44mn 10sOverall bit rate : 4 193 KbpsMovie name : Tankoviy.Biatlon.(s03).2015.HDTV.720p.x264-lrnEncoded date : UTC 2010-02-22 21:41:31Writing application : mkvmerge v5.9.0 ('On The Loose') built on Dec 9 2012 15:37:01Writing library : libebml v1.3.0 + libmatroska v1.4.0
VideoID : 1Format : AVCFormat/Info : Advanced Video CodecFormat profile : High@L4.1Format settings, CABAC : YesFormat settings, ReFrames : 8 framesCodec ID : V_MPEG4/ISO/AVCDuration : 44mn 10sBit rate : 4 000 KbpsWidth : 1 280 pixelsHeight : 720 pixelsDisplay aspect ratio : 16:9Frame rate mode : ConstantFrame rate : 25.000 fpsColor space : YUVChroma subsampling : 4:2:0Bit depth : 8 bitsScan type : ProgressiveBits/(Pixel*Frame) : 0.174Stream size : 1.21 GiB (93%)Writing library : x264 core 142 r2479 dd79a61Encoding settings : cabac=1 / ref=8 / deblock=1:-3:-3 / analyse=0x3:0x133 / me=umh / subme=9 / psy=1 / psy_rd=1.00:0.00 / mixed_ref=1 / me_range=32 / chroma_me=1 / trellis=2 / 8x8dct=1 / cqm=0 / deadzone=21,11 / fast_pskip=1 / chroma_qp_offset=-2 / threads=12 / lookahead_threads=2 / sliced_threads=0 / nr=0 / decimate=1 / interlaced=0 / bluray_compat=0 / constrained_intra=0 / bframes=8 / b_pyramid=2 / b_adapt=2 / b_bias=0 / direct=3 / weightb=1 / open_gop=0 / weightp=2 / keyint=250 / keyint_min=25 / scenecut=40 / intra_refresh=0 / rc_lookahead=50 / rc=2pass / mbtree=1 / bitrate=4000 / ratetol=1.0 / qcomp=0.60 / qpmin=0 / qpmax=69 / qpstep=4 / cplxblur=20.0 / qblur=0.5 / vbv_maxrate=62500 / vbv_bufsize=78125 / nal_hrd=none / filler=0 / ip_ratio=1.40 / aq=1:1.00Default : YesForced : NoColor range : LimitedColor primaries : BT.709Transfer characteristics : BT.709Matrix coefficients : BT.709
AudioID : 2Format : AC-3Format/Info : Audio Coding 3Mode extension : CM (complete main)Format settings, Endianness : BigCodec ID : A_AC3Duration : 44mn 10sBit rate mode : ConstantBit rate : 192 KbpsChannel(s) : 2 channelsChannel positions : Front: L RSampling rate : 48.0 KHzCompression mode : LossyStream size : 60.7 MiB (5%)Language : RussianDefault : YesForced : No

Tankoviy.Biatlon.(s03e04).2015.HDTV.720p.x264-lrn.mkv

GeneralUnique ID : 204295605755298246984880926993379490514 (0x99B1E707D21F73348FD2993B198FFAD2)Complete name : E:\uTorrent.Temp\Temp\Tankoviy.Biatlon.(s03).2015.HDTV.720p.x264-lrn\Tankoviy.Biatlon.(s03e04).2015.HDTV.720p.x264-lrn.mkvFormat : MatroskaFormat version : Version 4 / Version 2File size : 1.30 GiBDuration : 44mn 30sOverall bit rate : 4 193 KbpsMovie name : Tankoviy.Biatlon.(s03).2015.HDTV.720p.x264-lrnEncoded date : UTC 2010-02-22 21:41:31Writing application : mkvmerge v5.9.0 ('On The Loose') built on Dec 9 2012 15:37:01Writing library : libebml v1.3.0 + libmatroska v1.4.0
VideoID : 1Format : AVCFormat/Info : Advanced Video CodecFormat profile : High@L4.1Format settings, CABAC : YesFormat settings, ReFrames : 8 framesCodec ID : V_MPEG4/ISO/AVCDuration : 44mn 30sBit rate : 4 000 KbpsWidth : 1 280 pixelsHeight : 720 pixelsDisplay aspect ratio : 16:9Frame rate mode : ConstantFrame rate : 25.000 fpsColor space : YUVChroma subsampling : 4:2:0Bit depth : 8 bitsScan type : ProgressiveBits/(Pixel*Frame) : 0.174Stream size : 1.22 GiB (93%)Writing library : x264 core 142 r2479 dd79a61Encoding settings : cabac=1 / ref=8 / deblock=1:-3:-3 / analyse=0x3:0x133 / me=umh / subme=9 / psy=1 / psy_rd=1.00:0.00 / mixed_ref=1 / me_range=32 / chroma_me=1 / trellis=2 / 8x8dct=1 / cqm=0 / deadzone=21,11 / fast_pskip=1 / chroma_qp_offset=-2 / threads=12 / lookahead_threads=2 / sliced_threads=0 / nr=0 / decimate=1 / interlaced=0 / bluray_compat=0 / constrained_intra=0 / bframes=8 / b_pyramid=2 / b_adapt=2 / b_bias=0 / direct=3 / weightb=1 / open_gop=0 / weightp=2 / keyint=250 / keyint_min=25 / scenecut=40 / intra_refresh=0 / rc_lookahead=50 / rc=2pass / mbtree=1 / bitrate=4000 / ratetol=1.0 / qcomp=0.60 / qpmin=0 / qpmax=69 / qpstep=4 / cplxblur=20.0 / qblur=0.5 / vbv_maxrate=62500 / vbv_bufsize=78125 / nal_hrd=none / filler=0 / ip_ratio=1.40 / aq=1:1.00Default : YesForced : NoColor range : LimitedColor primaries : BT.709Transfer characteristics : BT.709Matrix coefficients : BT.709
AudioID : 2Format : AC-3Format/Info : Audio Coding 3Mode extension : CM (complete main)Format settings, Endianness : BigCodec ID : A_AC3Duration : 44mn 30sBit rate mode : ConstantBit rate : 192 KbpsChannel(s) : 2 channelsChannel positions : Front: L RSampling rate : 48.0 KHzCompression mode : LossyDelay relative to video : -80msStream size : 61.1 MiB (5%)Default : YesForced : No

Tankoviy.Biatlon.(s03e05).2015.HDTV.720p.x264-lrn.mkv

GeneralUnique ID : 220910545904604577232280894563739534016 (0xA631D2D3715A8DA99A8954A1E84882C0)Complete name : E:\uTorrent.Temp\Temp\Tankoviy.Biatlon.(s03).2015.HDTV.720p.x264-lrn\Tankoviy.Biatlon.(s03e05).2015.HDTV.720p.x264-lrn.mkvFormat : MatroskaFormat version : Version 4 / Version 2File size : 1.29 GiBDuration : 44mn 3sOverall bit rate : 4 194 KbpsMovie name : Tankoviy.Biatlon.(s03).2015.HDTV.720p.x264-lrnEncoded date : UTC 2010-02-22 21:41:31Writing application : mkvmerge v5.9.0 ('On The Loose') built on Dec 9 2012 15:37:01Writing library : libebml v1.3.0 + libmatroska v1.4.0
VideoID : 1Format : AVCFormat/Info : Advanced Video CodecFormat profile : High@L4.1Format settings, CABAC : YesFormat settings, ReFrames : 8 framesCodec ID : V_MPEG4/ISO/AVCDuration : 44mn 3sBit rate : 4 000 KbpsWidth : 1 280 pixelsHeight : 720 pixelsDisplay aspect ratio : 16:9Frame rate mode : ConstantFrame rate : 25.000 fpsColor space : YUVChroma subsampling : 4:2:0Bit depth : 8 bitsScan type : ProgressiveBits/(Pixel*Frame) : 0.174Stream size : 1.21 GiB (93%)Writing library : x264 core 142 r2479 dd79a61Encoding settings : cabac=1 / ref=8 / deblock=1:-3:-3 / analyse=0x3:0x133 / me=umh / subme=9 / psy=1 / psy_rd=1.00:0.00 / mixed_ref=1 / me_range=32 / chroma_me=1 / trellis=2 / 8x8dct=1 / cqm=0 / deadzone=21,11 / fast_pskip=1 / chroma_qp_offset=-2 / threads=12 / lookahead_threads=2 / sliced_threads=0 / nr=0 / decimate=1 / interlaced=0 / bluray_compat=0 / constrained_intra=0 / bframes=8 / b_pyramid=2 / b_adapt=2 / b_bias=0 / direct=3 / weightb=1 / open_gop=0 / weightp=2 / keyint=250 / keyint_min=25 / scenecut=40 / intra_refresh=0 / rc_lookahead=50 / rc=2pass / mbtree=1 / bitrate=4000 / ratetol=1.0 / qcomp=0.60 / qpmin=0 / qpmax=69 / qpstep=4 / cplxblur=20.0 / qblur=0.5 / vbv_maxrate=62500 / vbv_bufsize=78125 / nal_hrd=none / filler=0 / ip_ratio=1.40 / aq=1:1.00Default : YesForced : NoColor range : LimitedColor primaries : BT.709Transfer characteristics : BT.709Matrix coefficients : BT.709
AudioID : 2Format : AC-3Format/Info : Audio Coding 3Mode extension : CM (complete main)Format settings, Endianness : BigCodec ID : A_AC3Duration : 44mn 3sBit rate mode : ConstantBit rate : 192 KbpsChannel(s) : 2 channelsChannel positions : Front: L RSampling rate : 48.0 KHzCompression mode : LossyDelay relative to video : -80msStream size : 60.5 MiB (5%)Language : RussianDefault : YesForced : No

x264 logTankoviy.Biatlon.(s03e01).2015.HDTV.720p.x264-lrn.mkv

raw [info]: 1280x720p 1:1 @ 25/1 fps (cfr)x264 [info]: using SAR=1/1x264 [info]: using cpu capabilities: MMX2 SSE2Fast SSSE3 SSE4.2 AVXx264 [info]: profile High, level 4.1x264 [info]: frame I:772 Avg QP:17.47 size:125123x264 [info]: frame P:26646 Avg QP:21.17 size: 36765x264 [info]: frame B:50720 Avg QP:23.86 size: 9591x264 [info]: consecutive B-frames: 9.4% 11.5% 9.1% 61.8% 4.3% 3.0% 0.4% 0.4% 0.1%x264 [info]: mb I I16..4: 6.2% 74.9% 18.9%x264 [info]: mb P I16..4: 2.8% 11.7% 1.2% P16..4: 43.1% 18.3% 12.6% 0.7% 0.2% skip: 9.4%x264 [info]: mb B I16..4: 0.4% 1.3% 0.2% B16..8: 34.1% 8.9% 2.2% direct: 6.0% skip:47.0% L0:34.6% L1:43.7% BI:21.7%x264 [info]: 8x8 transform intra:74.1% inter:63.2%x264 [info]: direct mvs spatial:95.5% temporal:4.5%x264 [info]: coded y,uvDC,uvAC intra: 69.5% 71.1% 25.5% inter: 24.3% 22.1% 0.8%x264 [info]: i16 v,h,dc,p: 18% 26% 6% 50%x264 [info]: i8 v,h,dc,ddl,ddr,vr,hd,vl,hu: 10% 15% 7% 7% 11% 11% 14% 10% 16%x264 [info]: i4 v,h,dc,ddl,ddr,vr,hd,vl,hu: 11% 15% 5% 7% 12% 11% 14% 10% 15%x264 [info]: i8c dc,h,v,p: 30% 34% 19% 17%x264 [info]: Weighted P-Frames: Y:2.8% UV:0.5%x264 [info]: ref P L0: 58.9% 18.0% 12.7% 3.3% 2.6% 1.7% 1.6% 1.0% 0.2% 0.0%x264 [info]: ref B L0: 87.3% 7.7% 2.4% 1.1% 0.8% 0.5% 0.3%x264 [info]: ref B L1: 97.1% 2.9%x264 [info]: kb/s:3999.82encoded 78142 frames, 14.20 fps, 3999.82 kb/s

Tankoviy.Biatlon.(s03e02).2015.HDTV.720p.x264-lrn.mkv

raw [info]: 1280x720p 1:1 @ 25/1 fps (cfr)x264 [info]: using SAR=1/1x264 [info]: using cpu capabilities: MMX2 SSE2Fast SSSE3 SSE4.2 AVXx264 [info]: profile High, level 4.1x264 [info]: frame I:796 Avg QP:16.53 size:129547x264 [info]: frame P:25515 Avg QP:20.20 size: 37554x264 [info]: frame B:51714 Avg QP:22.92 size: 9652x264 [info]: consecutive B-frames: 8.0% 10.4% 9.2% 63.6% 4.4% 3.6% 0.5% 0.3% 0.0%x264 [info]: mb I I16..4: 6.5% 73.1% 20.4%x264 [info]: mb P I16..4: 3.0% 12.0% 1.3% P16..4: 42.6% 18.7% 12.8% 0.8% 0.2% skip: 8.6%x264 [info]: mb B I16..4: 0.4% 1.4% 0.2% B16..8: 34.2% 9.0% 2.1% direct: 6.2% skip:46.4% L0:35.3% L1:43.8% BI:20.9%x264 [info]: 8x8 transform intra:73.0% inter:62.0%x264 [info]: direct mvs spatial:95.8% temporal:4.2%x264 [info]: coded y,uvDC,uvAC intra: 69.1% 70.5% 26.9% inter: 24.1% 22.9% 0.9%x264 [info]: i16 v,h,dc,p: 17% 25% 6% 53%x264 [info]: i8 v,h,dc,ddl,ddr,vr,hd,vl,hu: 10% 16% 7% 7% 10% 11% 13% 10% 15%x264 [info]: i4 v,h,dc,ddl,ddr,vr,hd,vl,hu: 11% 16% 5% 7% 12% 11% 14% 9% 15%x264 [info]: i8c dc,h,v,p: 32% 34% 19% 15%x264 [info]: Weighted P-Frames: Y:2.5% UV:0.5%x264 [info]: ref P L0: 58.3% 16.8% 13.3% 3.6% 2.8% 1.9% 1.8% 1.2% 0.2% 0.0%x264 [info]: ref B L0: 86.1% 8.2% 2.8% 1.3% 0.9% 0.6% 0.3%x264 [info]: ref B L1: 96.8% 3.2%x264 [info]: kb/s:3999.88encoded 78028 frames, 14.11 fps, 3999.88 kb/s

Tankoviy.Biatlon.(s03e03).2015.HDTV.720p.x264-lrn.mkv

raw [info]: 1280x720p 1:1 @ 25/1 fps (cfr)x264 [info]: using SAR=1/1x264 [info]: using cpu capabilities: MMX2 SSE2Fast SSSE3 SSE4.2 AVXx264 [info]: profile High, level 4.1x264 [info]: frame I:673 Avg QP:16.57 size:130516x264 [info]: frame P:21472 Avg QP:20.07 size: 37419x264 [info]: frame B:44125 Avg QP:22.78 size: 9833x264 [info]: consecutive B-frames: 7.3% 10.9% 9.6% 63.5% 4.4% 3.3% 0.4% 0.5% 0.1%x264 [info]: mb I I16..4: 6.2% 73.1% 20.7%x264 [info]: mb P I16..4: 3.4% 12.2% 1.3% P16..4: 41.2% 18.7% 12.9% 0.8% 0.2% skip: 9.3%x264 [info]: mb B I16..4: 0.4% 1.4% 0.2% B16..8: 34.5% 9.4% 2.2% direct: 6.4% skip:45.6% L0:35.4% L1:43.4% BI:21.3%x264 [info]: 8x8 transform intra:71.9% inter:61.3%x264 [info]: direct mvs spatial:93.9% temporal:6.1%x264 [info]: coded y,uvDC,uvAC intra: 66.1% 67.1% 25.5% inter: 23.9% 22.0% 0.9%x264 [info]: i16 v,h,dc,p: 23% 25% 6% 46%x264 [info]: i8 v,h,dc,ddl,ddr,vr,hd,vl,hu: 11% 15% 9% 7% 10% 10% 13% 10% 15%x264 [info]: i4 v,h,dc,ddl,ddr,vr,hd,vl,hu: 11% 16% 6% 7% 12% 11% 14% 9% 15%x264 [info]: i8c dc,h,v,p: 33% 34% 19% 14%x264 [info]: Weighted P-Frames: Y:3.0% UV:0.5%x264 [info]: ref P L0: 58.8% 15.9% 13.6% 3.7% 2.8% 2.0% 1.8% 1.2% 0.2% 0.0%x264 [info]: ref B L0: 85.9% 8.2% 2.8% 1.3% 0.9% 0.6% 0.3%x264 [info]: ref B L1: 96.8% 3.2%x264 [info]: kb/s:3999.41encoded 66271 frames, 14.33 fps, 3999.41 kb/s

Tankoviy.Biatlon.(s03e04).2015.HDTV.720p.x264-lrn.mkv

raw [info]: 1280x720p 1:1 @ 25/1 fps (cfr)x264 [info]: using SAR=1/1x264 [info]: using cpu capabilities: MMX2 SSE2Fast SSSE3 SSE4.2 AVXx264 [info]: profile High, level 4.1x264 [info]: frame I:709 Avg QP:16.59 size:126400x264 [info]: frame P:22714 Avg QP:20.07 size: 36603x264 [info]: frame B:43333 Avg QP:22.72 size: 9550x264 [info]: consecutive B-frames: 9.1% 11.7% 10.4% 61.6% 4.1% 2.6% 0.3% 0.2% 0.1%x264 [info]: mb I I16..4: 7.3% 73.1% 19.6%x264 [info]: mb P I16..4: 3.8% 11.6% 1.2% P16..4: 41.7% 18.4% 13.0% 0.8% 0.2% skip: 9.3%x264 [info]: mb B I16..4: 0.5% 1.4% 0.1% B16..8: 35.2% 9.0% 2.1% direct: 6.6% skip:44.9% L0:35.8% L1:43.0% BI:21.2%x264 [info]: 8x8 transform intra:69.8% inter:60.4%x264 [info]: direct mvs spatial:92.6% temporal:7.4%x264 [info]: coded y,uvDC,uvAC intra: 62.1% 65.6% 24.7% inter: 23.9% 22.4% 0.8%x264 [info]: i16 v,h,dc,p: 28% 27% 7% 38%x264 [info]: i8 v,h,dc,ddl,ddr,vr,hd,vl,hu: 11% 17% 10% 7% 10% 10% 12% 9% 14%x264 [info]: i4 v,h,dc,ddl,ddr,vr,hd,vl,hu: 12% 17% 6% 7% 11% 10% 13% 9% 14%x264 [info]: i8c dc,h,v,p: 32% 36% 18% 13%x264 [info]: Weighted P-Frames: Y:2.4% UV:0.5%x264 [info]: ref P L0: 58.7% 15.8% 13.7% 3.9% 2.9% 2.0% 1.7% 1.1% 0.3% 0.0%x264 [info]: ref B L0: 85.0% 8.7% 3.1% 1.4% 1.0% 0.6% 0.3%x264 [info]: ref B L1: 96.6% 3.4%x264 [info]: kb/s:3999.20encoded 66758 frames, 13.43 fps, 3999.20 kb/s

Tankoviy.Biatlon.(s03e05).2015.HDTV.720p.x264-lrn.mkv

raw [info]: 1280x720p 1:1 @ 25/1 fps (cfr)x264 [info]: using SAR=1/1x264 [info]: using cpu capabilities: MMX2 SSE2Fast SSSE3 SSE4.2 AVXx264 [info]: profile High, level 4.1x264 [info]: frame I:695 Avg QP:20.10 size:137425x264 [info]: frame P:20308 Avg QP:23.46 size: 37068x264 [info]: frame B:45087 Avg QP:26.25 size: 10505x264 [info]: consecutive B-frames: 7.3% 10.5% 14.0% 30.2% 22.2% 12.6% 2.3% 0.6% 0.2%x264 [info]: mb I I16..4: 7.7% 70.5% 21.8%x264 [info]: mb P I16..4: 3.0% 8.8% 1.2% P16..4: 45.2% 16.9% 12.7% 0.6% 0.2% skip:11.5%x264 [info]: mb B I16..4: 0.3% 0.9% 0.1% B16..8: 39.3% 7.5% 2.0% direct: 6.3% skip:43.6% L0:38.4% L1:49.1% BI:12.5%x264 [info]: 8x8 transform intra:68.2% inter:61.4%x264 [info]: direct mvs spatial:92.2% temporal:7.8%x264 [info]: coded y,uvDC,uvAC intra: 65.0% 62.0% 24.2% inter: 25.1% 18.0% 0.9%x264 [info]: i16 v,h,dc,p: 23% 32% 8% 37%x264 [info]: i8 v,h,dc,ddl,ddr,vr,hd,vl,hu: 8% 13% 9% 8% 12% 11% 15% 9% 15%x264 [info]: i4 v,h,dc,ddl,ddr,vr,hd,vl,hu: 9% 14% 5% 8% 13% 11% 15% 10% 16%x264 [info]: i8c dc,h,v,p: 37% 35% 15% 13%x264 [info]: Weighted P-Frames: Y:4.0% UV:1.0%x264 [info]: ref P L0: 54.3% 16.8% 15.9% 4.2% 3.3% 2.1% 1.9% 1.1% 0.3% 0.0%x264 [info]: ref B L0: 84.7% 9.2% 3.0% 1.4% 0.9% 0.5% 0.2%x264 [info]: ref B L1: 95.4% 4.6%x264 [info]: kb/s:4000.33encoded 66093 frames, 13.22 fps, 4000.33 kb/s

Скриншоты

-