Загружается…
Ошибка

Что? Где? Когда? Весенняя Серия. Игра 3 [10.04.2016, Телеигра, HDTV 1080i]

Страницы:  1

Ответить на тему
Автор Сообщение

Разум

Что? Где? Когда? Весенняя Серия. Игра 3
Дата/Год выпуска: 10.04.2016
Страна: Россия
Жанр: Телеигра
Продолжительность: 01:02:15
Перевод: Не требуется
Телеканал: Первый
Описание: Популярнейшая командная интеллектуальная игра. В эфире с 1975 года. За четверть века перед глазами телезрителей прошло более 170 игр.Сначала программа обосновалась в баре телецентра в Останкино и провела там 7 лет (с 1975 по 1982 гг.), затем переехала на улицу Герцена, д. 47 (с 1983 по 1986 гг.), потом были три прямых эфира из Болгарии в 1987 г., Центр Международной Торговли на Красной Пресне в 1988-1989 гг., и наконец, Охотничий домик в Нескучном саду, где она обитает по сегодняшний день
Доп. информация: команда Андрея Козлова
1. Михаил Мун
2. Владимир Антохин
3. Алексей Капустин
4. Елена Александрова
5. Елена Орлова
6. Андрей Козлов
качество: HDTV 1080i
формат: TS
Видео: AVC at 8656 Кбит/сек Aspect : 1920 x 1080 (1.778) at 25.000 fps
Аудио: AC-3 at 384 Кбит/сек Infos : 6 каналов, 48,0 КГц
Аудио 2: MPEG Audio at 192 Кбит/сек Infos : 2 канала, 48,0 КГц

MediaInfo

ОбщееИдентификатор : 1 (0x1)Полное имя : E:\RECORD\ЧГК.Весна.Игра 3.10.04.2016.HDTV 1080i.Doc66.tsФормат : MPEG-TSРазмер файла : 4,23 ГбайтПродолжительность : 1 ч. 2 м.Режим общего битрейта : ПеременныйОбщий поток : 9718 Кбит/сек
ВидеоИдентификатор : 305 (0x131)Идентификатор меню : 20105 (0x4E89)Формат : AVCФормат/Информация : Advanced Video CodecПрофиль формата : High@L4Параметр CABAC формата : ДаПараметр ReFrames формата : 4 кадраПараметр GOP формата : M=4, N=28Идентификатор кодека : 27Продолжительность : 1 ч. 2 м.Битрейт : 8656 Кбит/секШирина : 1920 пикселейВысота : 1080 пикселейСоотношение сторон : 16:9Частота кадров : 25,000 кадров/секСтандарт вещания : ComponentЦветовое пространство : YUVСубдискретизация насыщенности : 4:2:0Битовая глубина : 8 битТип развёртки : ЧересстрочнаяПорядок развёртки : Верхнее поле первоеБит/(Пиксели*Кадры) : 0.167Размер потока : 3,76 Гбайт (89%)Цветовой диапазон : LimitedОсновные цвета : BT.709Характеристики трансфера : BT.709Коэффициенты матрицы : BT.709
Аудио #1Идентификатор : 405 (0x195)Идентификатор меню : 20105 (0x4E89)Формат : AC-3Формат/Информация : Audio Coding 3Расширение режима : CM (complete main)Параметр Endianness формата : BigИдентификатор кодека : 6Продолжительность : 1 ч. 2 м.Вид битрейта : ПостоянныйБитрейт : 384 Кбит/секКаналы : 6 каналовРасположение каналов : Front: L C R, Side: L R, LFEЧастота : 48,0 КГцМетод сжатия : С потерямиЗадержка видео : -120 мс.Размер потока : 171 Мбайт (4%)Язык : Russian
Аудио #2Идентификатор : 406 (0x196)Идентификатор меню : 20105 (0x4E89)Формат : MPEG AudioВерсия формата : Version 1Профиль формата : Layer 2Идентификатор кодека : 3Продолжительность : 1 ч. 2 м.Вид битрейта : ПостоянныйБитрейт : 192 Кбит/секКаналы : 2 каналаЧастота : 48,0 КГцМетод сжатия : С потерямиЗадержка видео : -120 мс.Размер потока : 85,5 Мбайт (2%)Язык : Russian
ТекстИдентификатор : 407 (0x197)-888Идентификатор меню : 20105 (0x4E89)Формат : Teletext SubtitleЯзык : Russian
МенюИдентификатор : 205 (0xCD)Идентификатор меню : 20105 (0x4E89)Продолжительность : 1 ч. 2 м.Список : 305 (0x131) (AVC) / 405 (0x195) (AC-3, Russian) / 406 (0x196) (MPEG Audio, Russian) / 407 (0x197) ()Язык : / Russian / Russian

Скриншоты

Будут