Загружается…
Ошибка

Проказник-Безобразник! / Dunderklumpen! (Пер Олин / Per Åhlin) [1974, Швеция, Комедия, семейный, DVDRip] VO (Max Nabokov)

Страницы:  1

Ответить на тему
Автор Сообщение

Разум

Проказник-Безобразник! / Dunderklumpen!
Страна: Швеция
Жанр: Комедия, семейный
Продолжительность: 1:33:16
Год выпуска: 1974
Перевод: Одноголосый закадровый (Max Nabokov)
Русские субтитры: нет
Режиссёр: Пер Олин / Per ?hlin
Роли озвучивали: Халвар Бъйорк, Беппе Волгерс, Йенс Волгерс, Хакан Сернер, Тутс Тильманс, Сиф Рууд, Госта Икман...
Описание: Камилла и Йенс - маленькие брат и сестра, которые живут на окраине сказочного леса. Однажды вечером к ним в дом проникло странное существо по имени Проказник-безобразник. Он заскучал в своём лесу и отправился на поиски друзей где нашел их среди детских игрушек. Ничуть не смущаясь, Проказник-безобразник крадет игрушки, Камиллы и Йенса, предварительно их оживив. Обнаружив пропажу, Йенс отправляется следом за Проказником-безобразником, чтобы вернуть свое имущество. Отец Йенса, Беппе спешит к нему на выручку вмести со своим другом шмелём. Героев этого веселого фильма, полного песен и музыки, ждут весьма забавные и порой опасные приключения, но верная дружба и вера в людей помогут им преодолеть любые невзгоды.
Доп. информация: Шведский полнометражный анимационный фильм " Dunderklumpen!" на самом деле не только анимационный, но и игровой. Детей и их отца сыграли живые люди, которым пришлось взаимодействовать с вымышленными - рисованными - персонажами. В качестве фона в подавляющем большинстве сцен тоже выступает настоящая природа. Подобная стилистика сейчас, с широким применением компьютеров в кино, не редкость, но в 20-м веке она встречалась не часто. Осуществить совмещение рисованного и реального мира было связано с рядом технических трудностей, поэтому такие фильмы по пальцам можно было перечесть (вспоминаются разве что "Мария, Мирабелла" Йона Попеску-Гопо и несколько опытов студии Уолта Диснея).
Семпл: http://multi-up.com/1097292
Качество: DVDRip
Формат: AVI
Видео: Xvid, 720x544, 25fps, 1996 kb/s]
Аудио 1: Dolby AC3 48000Hz stereo 192kbps (рус)
Аудио 2: Dolby AC3 48000Hz stereo 192kbps (шве. отдельный файл)

Подробные технические данные

GeneralComplete name : D:\MOVIE\Dunderklumpen!Per ?hlin.1974.DVDRip.(Max Nabokov)\Dunderklumpen!Per ?hlin.1974.DVDRip.(Max Nabokov).aviFormat : AVIFormat/Info : Audio Video InterleaveFile size : 1.43 GiBDuration : 1h 33mnOverall bit rate : 2 199 KbpsWriting application : VirtualDubMod 1.5.10.2 (build 2540/release)Writing library : VirtualDubMod build 2540/release
VideoID : 0Format : MPEG-4 VisualFormat profile : Advanced Simple@L5Format settings, BVOP : 1Format settings, QPel : NoFormat settings, GMC : No warppointsFormat settings, Matrix : Default (H.263)Codec ID : XVIDCodec ID/Hint : XviDDuration : 1h 33mnBit rate : 1 997 KbpsWidth : 720 pixelsHeight : 544 pixelsDisplay aspect ratio : 4:3Frame rate : 25.000 fpsColor space : YUVChroma subsampling : 4:2:0Bit depth : 8 bitsScan type : ProgressiveCompression mode : LossyBits/(Pixel*Frame) : 0.204Stream size : 1.30 GiB (91%)Writing library : XviD 1.2.1 (UTC 2008-12-04)
AudioID : 1Format : AC-3Format/Info : Audio Coding 3Mode extension : CM (complete main)Format settings, Endianness : BigCodec ID : 2000Duration : 1h 33mnBit rate mode : ConstantBit rate : 192 KbpsChannel(s) : 2 channelsChannel positions : Front: L RSampling rate : 48.0 KHzFrame rate : 31.250 fps (1536 spf)Compression mode : LossyStream size : 128 MiB (9%)Alignment : Split accross interleavesInterleave, duration : 40 ms (1.00 video frame)Interleave, preload duration : 500 ms