Загружается…
Ошибка

Снупи, возвращайся! / Snoopy, come home! (Билл Мелендес / Bill Melendez) [1972, США, мультфильм, драма, комедия, приключения, семейный, музыка, HDRip] DVO + Original Eng

Страницы:  1

Ответить на тему
Автор Сообщение

Разум

Снупи, возвращайся! / Snoopy, come home!- -Страна: США
Жанр: Мультфильм, драма, комедия, приключения, семейный, музыка
Продолжительность: 01:20:13
Год выпуска: 1972
-Перевод: Профессиональный (двухголосый, закадровый) | DVD-Магия
Субтитры: нет
Режиссёр: Билл Мелендес / Bill Melendez
-В ролях:
Чад Веббер, Робин Кон, Стефен Ши, Дэвид Кэри, Джоанна Баэр, Hilary Momberger, Кристофер ДеФариа, Линда Эрколи, Линда Мендельсон, Билл Мелендес
-Описание:
Забавный щенок Снупи очень не любит надписи вроде: «Собак выгуливать запрещается». Он ссорится с Линусом из-за одеяла и даже проводит боксерский матч с Люси.
Его собачьи чувства обижены, Снупи решает убежать из дома с его маленьким преданным пернатым другом Вудстоком. Вместе они переживают серию невероятных приключений в большом городе, пока не встречаются с Лайлой, которая оказывается первой хозяйкой Снупи.
-Релиз групп All Films, RG Torrents.ru и RG Мультфильмы-Сэмпл: https://www.sendspace.com/file/88kwa1-Качество: HDRip - [url=viewtopic.php?t=5211622]Исходник[/url] (Спасибо -Azureus-)
Формат: AVI
Видео: 704x400 (1.76:1), 23.976 fps, XviD build 73 ~2202 kbps avg, 0.33 bit/pixel
Аудио: 48 kHz, AC3 Dolby Digital, 2/0 (L,R) ch, ~192 kbps | Rus
Аудио 2: 48 kHz, AC3 Dolby Digital, 2/0 (L,R) ch, ~192 kbps | Eng
-

Отчёт MediaInfo

General
Complete name : C:\Users\Максим\Desktop\Snoopy,Come.Home!1972.HDRip.polkera.avi
Format : AVI
Format/Info : Audio Video Interleave
File size : 1.46 GiB
Duration : 1h 20mn
Overall bit rate : 2 601 Kbps
Writing application : VirtualDubMod 1.5.10.3 | www.virtualdub-fr.org || (build 2550/release)
Writing library : VirtualDubMod build 2550/release
Video
Format : MPEG-4 Visual
Format profile : Streaming Video@L1
Format settings, BVOP : Yes
Format settings, QPel : No
Format settings, GMC : No warppoints
Format settings, Matrix : Custom
Codec ID : XVID
Codec ID/Hint : XviD
Duration : 1h 20mn
Bit rate : 2 203 Kbps
Width : 704 pixels
Height : 400 pixels
Display aspect ratio : 16/9
Frame rate : 23.976 fps
Resolution : 24 bits
Colorimetry : 4:2:0
Scan type : Progressive
Bits/(Pixel*Frame) : 0.326
Stream size : 1.23 GiB (85%)
Writing library : XviD 73
Audio #1
Format : AC-3
Format/Info : Audio Coding 3
Codec ID : 2000
Duration : 1h 20mn
Bit rate mode : Constant
Bit rate : 192 Kbps
Channel(s) : 2 channels
Channel positions : L R
Sampling rate : 48.0 KHz
Stream size : 110 MiB (7%)
Alignment : Split accross interleaves
Interleave, duration : 42 ms (1.00 video frame)
Interleave, preload duration : 500 ms
Audio #2
Format : AC-3
Format/Info : Audio Coding 3
Codec ID : 2000
Duration : 1h 20mn
Bit rate mode : Constant
Bit rate : 192 Kbps
Channel(s) : 2 channels
Channel positions : L R
Sampling rate : 48.0 KHz
Stream size : 110 MiB (7%)
Alignment : Split accross interleaves
Interleave, duration : 42 ms (1.00 video frame)
Interleave, preload duration : 500 ms

-

Скриншоты

- | |