Загружается…
Ошибка

Вверх / Up (Пит Доктер, Боб Питерсон / Pete Docter, Bob Peterson) [2009, драма, комедия, приключения, семейный, BDRip-AVC] [Локализованный видеоряд] DUB (Blu-ray CEE) + ENG + Subs Rus, Eng, Ukr

Страницы:  1

Ответить на тему
Автор Сообщение

Разум


Вверх | Up
«Когда проблемы тянут ко дну, смотри вверх!»
Локализованный видеоряд
- Страна: США | Pixar Animation Studios
Жанр: драма, комедия, приключения, семейный
Продолжительность: 1:36:37
Год выпуска: 2009
Перевод: Профессиональный (дублированный) Blu-ray CEE
Русские субтитры: есть-Режиссёры: Пит Доктер, Боб Питерсон / Pete Docter, Bob Peterson
Роли озвучивали: Эдвард Эснер, Кристофер Пламмер, Джордан Нагаи, Боб Питерсон, Делрой Линдо, Джером Рэнфт, Джон Ратценбергер, Дэвид Кэй, Эли Доктер, Джереми Лири...-Роли дублировали: Армен Джигарханян, Дальвин Щербаков, Иван Чуваткин, Александр Стефанцов, Владимир Тягичев...-Описание78-летний ворчун Карл Фредриксен считает, что жизнь обходит его стороной. Чтобы сдержать обещание, данное своей почившей жене, он решает осуществить свою мечту о великом приключении, привязав тысячи воздушных шариков к своему дому и улетев в дебри Южной Америки. Не пролетев и полмили, путешественник обнаруживает, что он ненароком прихватил с собой крайне разговорчивого и неисправимо жизнерадостного 8-летнего мальчика по имени Рассел…-
«Вверх» (англ. Up) — полнометражный мультипликационный фильм анимационной студии Pixar. Produced by Pixar Animation Studios and released by Walt Disney Pictures

Оскар, 2010 год
Победитель (2):
Лучший саундтрек
Лучший анимационный фильм
Золотой глобус, 2010 год
Победитель (2):
Лучший саундтрек
Лучший анимационный фильм
- | Релиз: -Сэмпл: скачать
Blu-Ray Disc из личной коллекции xfiles-Качество: BDRip-AVC [url=viewtopic.php?t=4542702]Blu-ray Disc 1080p[/url] -Azureus-
Формат: MKV
Видео: AVC 3010 Kbps 1152 x 648 (1.778) 23.976 fps
Аудио 1: AC-3 448 Kbps 6 channels, 48.0 KHz Rus Blu-ray CEE
Аудио 2: AC-3 448 Kbps 6 channels, 48.0 KHz Eng
Субтитры: English, Russian, Ukrainian

Скриншоты




MI | LogLog

x264 [info]: frame I:1219 Avg QP:13.58 size:131022
x264 [info]: frame P:35598 Avg QP:15.19 size: 32043
x264 [info]: frame B:102187 Avg QP:18.16 size: 9164
x264 [info]: consecutive B-frames: 3.1% 3.3% 24.1% 25.2% 12.2% 24.1% 3.0% 1.7% 1.4% 0.4% 0.5% 0.5% 0.4% 0.2% 0.1%
x264 [info]: mb I I16..4: 6.1% 70.9% 23.0%
x264 [info]: mb P I16..4: 0.6% 9.7% 1.6% P16..4: 28.3% 29.7% 14.1% 3.3% 0.6% skip:12.1%
x264 [info]: mb B I16..4: 0.1% 1.2% 0.2% B16..8: 29.2% 18.5% 3.6% direct: 3.9% skip:43.4% L0:42.0% L1:45.1% BI:12.9%
x264 [info]: 8x8 transform intra:79.9% inter:49.6%
x264 [info]: direct mvs spatial:100.0% temporal:0.0%
x264 [info]: coded y,uvDC,uvAC intra: 91.8% 86.6% 72.9% inter: 15.6% 14.7% 6.4%
x264 [info]: i16 v,h,dc,p: 14% 10% 8% 69%
x264 [info]: i8 v,h,dc,ddl,ddr,vr,hd,vl,hu: 12% 11% 8% 9% 11% 11% 12% 11% 15%
x264 [info]: i4 v,h,dc,ddl,ddr,vr,hd,vl,hu: 13% 9% 4% 9% 16% 13% 14% 10% 12%
x264 [info]: i8c dc,h,v,p: 39% 28% 17% 16%
x264 [info]: Weighted P-Frames: Y:4.7% UV:3.1%
x264 [info]: ref P L0: 52.0% 7.5% 15.5% 6.3% 5.1% 3.8% 3.1% 2.2% 1.5% 1.3% 1.2% 0.5% 0.0%
x264 [info]: ref B L0: 69.6% 11.8% 6.2% 3.2% 3.8% 1.9% 1.7% 1.0% 0.6% 0.3%
x264 [info]: ref B L1: 91.0% 9.0%
x264 [info]: kb/s:3086.55
x264 [total]: encoded 139004 frames, 7.52 fps, 3086.55 kb/s, duration 5:08:07.66
Format : Matroska
Format version : Version 4 / Version 2
File size : 2.69 GiB
Duration : 1h 36mn
Overall bit rate : 3 985 Kbps
Encoded date : UTC 2016-04-20 18:06:17
Writing application : mkvmerge v6.7.0 ('Back to the Ground') 32bit built on Jan 8 2014 15:03:17
Writing library : libebml v1.3.0 + libmatroska v1.4.1
Video
ID : 1
Format : AVC
Format/Info : Advanced Video Codec
Format profile : High@L4.1
Format settings, CABAC : Yes
Format settings, ReFrames : 11 frames
Codec ID : V_MPEG4/ISO/AVC
Duration : 1h 36mn
Bit rate : 3 010 Kbps
Width : 1 152 pixels
Height : 648 pixels
Display aspect ratio : 16:9
Frame rate mode : Constant
Frame rate : 23.976 (24000/1001) fps
Color space : YUV
Chroma subsampling : 4:2:0
Bit depth : 8 bits
Scan type : Progressive
Bits/(Pixel*Frame) : 0.168
Stream size : 2.03 GiB (76%)
Title : Up (2009) [rutracker.org]
Writing library : x264 core 148 r2638kMod 7599210
Encoding settings : cabac=1 / ref=11 / deblock=1:-2:-2 / analyse=0x3:0x133 / me=umh / subme=11 / psy=1 / fade_compensate=0.00 / psy_rd=1.00:0.05 / mixed_ref=1 / me_range=48 / chroma_me=1 / trellis=2 / 8x8dct=1 / cqm=0 / deadzone=21,11 / fast_pskip=0 / chroma_qp_offset=-3 / threads=12 / lookahead_threads=3 / sliced_threads=0 / nr=0 / decimate=1 / interlaced=0 / bluray_compat=0 / constrained_intra=0 / fgo=0 / bframes=14 / b_pyramid=2 / b_adapt=2 / b_bias=0 / direct=3 / weightb=1 / open_gop=0 / weightp=2 / keyint=250 / keyint_min=23 / scenecut=40 / intra_refresh=0 / rc_lookahead=60 / rc=crf / mbtree=0 / crf=16.8000 / qcomp=0.60 / qpmin=0 / qpmax=69 / qpstep=4 / vbv_maxrate=50000 / vbv_bufsize=62500 / crf_max=0.0 / nal_hrd=none / filler=0 / ip_ratio=1.40 / pb_ratio=1.30 / aq=3:0.90
Language : English
Default : Yes
Forced : No
Audio #1
ID : 2
Format : AC-3
Format/Info : Audio Coding 3
Mode extension : CM (complete main)
Format settings, Endianness : Big
Codec ID : A_AC3
Duration : 1h 36mn
Bit rate mode : Constant
Bit rate : 448 Kbps
Channel(s) : 6 channels
Channel positions : Front: L C R, Side: L R, LFE
Sampling rate : 48.0 KHz
Frame rate : 31.250 fps (1536 spf)
Compression mode : Lossy
Stream size : 310 MiB (11%)
Title : DUB [Blu-ray CEE]
Language : Russian
Default : Yes
Forced : No
Audio #2
ID : 3
Format : AC-3
Format/Info : Audio Coding 3
Mode extension : CM (complete main)
Format settings, Endianness : Big
Codec ID : A_AC3
Duration : 1h 36mn
Bit rate mode : Constant
Bit rate : 448 Kbps
Channel(s) : 6 channels
Channel positions : Front: L C R, Side: L R, LFE
Sampling rate : 48.0 KHz
Frame rate : 31.250 fps (1536 spf)
Compression mode : Lossy
Stream size : 310 MiB (11%)
Title : Original
Language : English
Default : No
Forced : No
Text #1
ID : 4
Format : UTF-8
Codec ID : S_TEXT/UTF8
Codec ID/Info : UTF-8 Plain Text
Title : Full
Language : Russian
Default : No
Forced : No
Text #2
ID : 5
Format : UTF-8
Codec ID : S_TEXT/UTF8
Codec ID/Info : UTF-8 Plain Text
Title : Forced
Language : Ukrainian
Default : No
Forced : No
Text #3
ID : 6
Format : UTF-8
Codec ID : S_TEXT/UTF8
Codec ID/Info : UTF-8 Plain Text
Title : Full
Language : Ukrainian
Default : No
Forced : No
Text #4
ID : 7
Format : UTF-8
Codec ID : S_TEXT/UTF8
Codec ID/Info : UTF-8 Plain Text
Title : Full
Language : English
Default : No
Forced : No
Text #5
ID : 8
Format : UTF-8
Codec ID : S_TEXT/UTF8
Codec ID/Info : UTF-8 Plain Text
Title : SDH
Language : English
Default : No
Forced : No
Menu
00:00:00.000 : en:00:00:00.000
00:02:39.409 : en:00:02:39.409
00:07:14.184 : en:00:07:14.184
00:11:37.488 : en:00:11:37.488
00:13:33.479 : en:00:13:33.479
00:15:22.088 : en:00:15:22.088
00:17:35.888 : en:00:17:35.888
00:20:25.140 : en:00:20:25.140
00:24:31.303 : en:00:24:31.303
00:26:23.790 : en:00:26:23.790
00:28:02.556 : en:00:28:02.556
00:29:40.237 : en:00:29:40.237
00:33:20.165 : en:00:33:20.165
00:34:20.391 : en:00:34:20.391
00:35:14.487 : en:00:35:14.487
00:39:49.512 : en:00:39:49.512
00:42:34.844 : en:00:42:34.844
00:44:41.178 : en:00:44:41.178
00:46:17.233 : en:00:46:17.233
00:49:19.123 : en:00:49:19.123
00:52:20.929 : en:00:52:20.929
00:55:23.987 : en:00:55:23.987
01:00:33.546 : en:01:00:33.546
01:04:19.188 : en:01:04:19.188
01:06:14.303 : en:01:06:14.303
01:08:58.009 : en:01:08:58.009
01:10:20.716 : en:01:10:20.716
01:13:35.327 : en:01:13:35.327
01:15:24.353 : en:01:15:24.353
01:17:52.751 : en:01:17:52.751
01:19:45.864 : en:01:19:45.864
01:21:53.867 : en:01:21:53.867
01:23:23.290 : en:01:23:23.290
01:26:02.657 : en:01:26:02.657
01:29:02.420 : en:01:29:02.420